RSS

Страницы сайта

Топ недели

Просматривают

Загрузка...
Dr.Alban - Hit Collection (2000) FLAC Музыка
Добавлен - 
Размер - 637.94 MB (668,933,598 байт)
0
рейтинг
0
голосов
Как скачивать?

Скачать через торрент

1. На вопрос браузера что делать - открыть через uTorrent.

2. uTorrent предложит указать папку, куда будет закачиваться файл(ы), если файлов в раздаче несколько, можно выбрать только нужные Вам, сняв галочки с остальных.

3. Качаем.

Скачать через магнет ссылку

1. На вопрос браузера что делать ссылкой выбираем открыть через uTorrent.

2. Ждем пока подключатся участники.

3. µTorrent предложит указать папку, куда будет закачиваться файл(ы).

4. Качаем.

Dr.Alban - Hit Collection (2000) FLAC

Dr.Alban - Hit Collection (2000) FLACНазвание: Dr.Alban - Hit Collection
Формат/Кодек: FLAC(image+.cue)
Битрейт: Lossless
Жанр: Eurodance
Год издания: 2000
Общая продолжительность: 73мин. 35сек.

Треклист:
01. Dr.ALBAN - Hard Pan Di Drums (06:23)
02. Dr.ALBAN - Gimme Dat Lovin (04:08)
03. Dr.ALBAN - No Coke (06:48)
04. Dr.ALBAN - Sweet Reggae Music (05:31)
05. Dr.ALBAN - Hello Africa (06:41)
06. Dr.ALBAN - Stop The Pollution (03:45)
07. Dr.ALBAN - U & Me (03:49)
08. Dr.ALBAN - One Love (04:16)
09. Dr.ALBAN - Sing Hallelujah! (04:04)
10. Dr.ALBAN - It's My Life (04:04)
11. Dr.ALBAN - Look Who's Talking (05:25)
12. Dr.ALBAN - Let The Beat Go On (04:06)
13. Dr.ALBAN - Away From Home (03:21)
14. Dr.ALBAN - This Time I'm Free (03:53)
15. Dr.ALBAN - Hallelujah Day (03:41)
16. Dr.ALBAN - Born In Africa (03:32)
17. Dr.ALBAN - Reggae Music Gonna Move Ya (04:10)

лог EAC
Exact Audio Copy V0.99 prebeta 5 from 4. May 2009

Отчёт EAC об извлечении, выполненном 14. ноября 2009, 21:32

Dr.ALBAN / HIT COLLECTION

Дисковод: ASUS DRW-1814BLT Adapter: 2 ID: 0

Режим чтения : Достоверность
Использование точного потока : Да
Отключение кэша аудио : Да
Использование указателей C2 : Нет

Коррекция смещения при чтении : 6
Способность читать области Lead-in и Lead-out : Нет
Заполнение пропущенных сэмплов тишиной : Да
Удаление блоков с тишиной в начале и конце : Нет
При вычислениях CRC использовались нулевые сэмплы : Да
Интерфейс : Установленный внешний ASPI-интерфейс

Выходной формат : Внутренние WAV-операции
Формат сэмплов : 44.100 Гц; 16 бит; стерео

TOC извлечённого CD

Трек | Старт | Длительность | Начальный сектор | Конечный сектор
---------------------------------------------------------------------
1 | 0:00.00 | 6:23.47 | 0 | 28771
2 | 6:23.47 | 4:08.37 | 28772 | 47408
3 | 10:32.09 | 6:48.22 | 47409 | 78030
4 | 17:20.31 | 5:31.12 | 78031 | 102867
5 | 22:51.43 | 6:41.64 | 102868 | 133006
6 | 29:33.32 | 3:45.07 | 133007 | 149888
7 | 33:18.39 | 3:49.52 | 149889 | 167115
8 | 37:08.16 | 4:16.50 | 167116 | 186365
9 | 41:24.66 | 4:04.07 | 186366 | 204672
10 | 45:28.73 | 4:04.02 | 204673 | 222974
11 | 49:33.00 | 5:25.54 | 222975 | 247403
12 | 54:58.54 | 4:06.72 | 247404 | 265925
13 | 59:05.51 | 3:21.65 | 265926 | 281065
14 | 62:27.41 | 3:53.29 | 281066 | 298569
15 | 66:20.70 | 3:41.27 | 298570 | 315171
16 | 70:02.22 | 3:32.62 | 315172 | 331133
17 | 73:35.09 | 4:10.29 | 331134 | 349912

Характеристики диапазона извлечения и сообщения об ошибках

Выбранный диапазон

Имя файла E:LosslessDr.ALBAN - HIT COLLECTION.wav

Пиковый уровень 100.0 %
Качество диапазона 99.9 %
CRC копии AFEE83CB
Копирование... OK

Ошибок не произошло

AccurateRip: сводка

Трек 1 нет в базе данных
Трек 2 нет в базе данных
Трек 3 нет в базе данных
Трек 4 нет в базе данных
Трек 5 нет в базе данных
Трек 6 нет в базе данных
Трек 7 нет в базе данных
Трек 8 нет в базе данных
Трек 9 нет в базе данных
Трек 10 нет в базе данных
Трек 11 нет в базе данных
Трек 12 нет в базе данных
Трек 13 нет в базе данных
Трек 14 нет в базе данных
Трек 15 нет в базе данных
Трек 16 нет в базе данных
Трек 17 нет в базе данных

Ни одного трека нет в базе AccurateRip

Конец отчёта

Доп.информация: Рип с собственного диска, сканы в раздаче.Всем приятного прослушивания!
Видео Dr.Alban - Hit Collection (2000) FLAC
Ничего не найдено
Похожие

ДанныеСписок файлов
ПирыРаздающие: 0   Качающие: 0   Скачали: 4 раз
Файлов10 шт.
АвторАноним Голосовать могут только зарегистрированные пользователи 0 Голосовать могут только зарегистрированные пользователи       Сид был: 09.11.17 в 21:06
Комментарии могут оставлять только зарегистрированные пользователи.
⇑ Наверх